extratorrent - A Fan Made Alternative Login   |   Register
Important Information
Registrations are open now
-------------------------------------

Please click here to register with Extratorrent2 to recieve latest updates, add bookmarks and to post comments.

Friends
Friends

1) ProxyFix

Extratorrent2 > Categories > Movies > The Flash (2014) Season 1 [EP 2] 720p Bluray x264 Esub [Dual Audio] [Hindi 2.0 - English 2.0] - 450 MB torrent


Browse Movies torrents

The Flash (2014) Season 1 [EP 2] 720p Bluray x264 Esub [Dual Audio] [Hindi 2.0 - English 2.0] - 450 MB torrent


Download torrent: Download The Flash (2014) Season 1 [EP 2] 720p Bluray x264 Esub [Dual Audio] [Hindi 2.0 - English 2.0] - 450 MB torrent Magnet link Bookmark Torrent: The Flash (2014) Season 1 [EP 2] 720p Bluray x264 Esub [Dual Audio] [Hindi 2.0 - English 2.0] - 450 MB   The Flash (2014) Season 1 [EP 2] 720p Bluray x264 Esub [Dual Audio] [Hindi 2.0 - English 2.0] - 450 MB torrent
Info hash: 90F361C03A7B41037BC417AF90630F88B2948173
Category: Categories > Movies
Trackers:
View all torrent trackers >
Health:
 seeds: 18 ,  leechers: 7 |  Update >
Torrent language: Hindi Hindi
Total Size: 450.0 MB
Files List:
1    View torrent files >
Uploader:
DESIRE123
Torrent added: August 24, 2018, 4:01 am
Users rating: ---, not rated. please login to rate.

Download The Flash (2014) Season 1 [EP 2] 720p Bluray x264 Esub [Dual Audio] [Hindi 2.0 - English 2.0] - 450 MB torrent



Torrent Description

The Flash (2014) Season 1 [EP 2] 720p Bluray x264 Esub [Dual Audio] [Hindi 2.0 - English 2.0] - 450 MB


EXUSIVE UPLOAD BY DesireMoVies.trade


The Flash (2014) Season 1 [EP 2]


POSTER



INFO


General
Format : Matroska
Format version : Version 4 / Version 2
File size : 450 MiB
Duration : 42 min 26 s
Overall bit rate : 1 483 kb/s

Video
ID : 1
Format : AVC
Format/Info : Advanced Video Codec
Format profile :
Format settings : CABAC / 5 Ref Frames
Format settings, CABAC : Yes
Format settings, ReFrames : 5 frames
Codec ID : V_MPEG4/ISO/AVC
Duration : 42 min 26 s
Bit rate : 1 221 kb/s
Width : 1 280 pixels
Height : 720 pixels
Display aspect ratio : 16:9
Frame rate mode : Constant
Frame rate : 23.976 (24000/1001) FPS
Color space : YUV
Chroma subsampling : 4:2:0
Bit depth : 8 bits

Audio #1
ID : 2
Format : MPEG Audio
Format version : Version 1
Format profile : Layer 3
Format settings : Joint stereo / MS Stereo
Codec ID : A_MPEG/L3
Codec ID/Hint : MP3
Duration : 42 min 26 s
Bit rate mode : Constant
Bit rate : 160 kb/s
Channel(s) : 2 channels
Sampling rate : 48.0 kHz
Frame rate : 41.667 FPS (1152 SPF)
Compression mode : Lossy
Stream size : 48.6 MiB (11%)
Title : DesireMovies.trade
Writing library : LAME3.98.2
Language : Hindi
Default : Yes
Forced : Yes

Audio #2
ID : 3
Format : AAC
Format/Info : Advanced Audio Codec
Format profile : HE-AAC / LC
Format settings : Explicit
Codec ID : A_AAC-2
Duration : 42 min 26 s
Bit rate : 99.9 kb/s
Channel(s) : 2 channels
Channel positions : Front: L R
Sampling rate : 48.0 kHz / 24.0 kHz
Frame rate : 23.438 FPS (1024 SPF)
Compression mode : Lossy
Delay relative to video : 31 ms
Stream size : 30.3 MiB (7%)
Title : DesireMovies.trade
Language : English
Default : No
Forced : No

Text
ID : 4
Format : UTF-8
Codec ID : S_TEXT/UTF8
Codec ID/Info : UTF-8 Plain Text
Duration : 42 min 20 s
Bit rate : 80 b/s
Count of elements : 632
Stream size : 25.1 KiB (0%)
Title : DesireMovies.trade
Language : English
Default : Yes
Forced : No


SCREENSHOT



Keep Visit DesireMoVies.trade For More Exusive MoVies



Download The Flash (2014) Season 1 [EP 2] 720p Bluray x264 Esub [Dual Audio] [Hindi 2.0 - English 2.0] - 450 MB torrent


Related Torrents


Comments   (please login to add your comment!)


Home - Browse Torrents

Made with love by an Extratorrent Fan!