extratorrent - A Fan Made Alternative Login   |   Register
Important Information
Registrations are open now
-------------------------------------

Please click here to register with Extratorrent2 to recieve latest updates, add bookmarks and to post comments.

Friends
Friends

1) ProxyFix

Extratorrent2 > Categories > TV > The Flash (Fastest Man Alive) S01E02 (2014) BluRay - 720p - [Hindi + Eng] - 400MB [MovCr] torrent


Browse TV torrents

The Flash (Fastest Man Alive) S01E02 (2014) BluRay - 720p - [Hindi + Eng] - 400MB [MovCr] torrent


Download torrent: Download The Flash (Fastest Man Alive) S01E02 (2014) BluRay - 720p - [Hindi + Eng] - 400MB [MovCr] torrent Magnet link Bookmark Torrent: The Flash (Fastest Man Alive) S01E02 (2014) BluRay - 720p - [Hindi + Eng] - 400MB [MovCr]   The Flash (Fastest Man Alive) S01E02 (2014) BluRay - 720p - [Hindi + Eng] - 400MB [MovCr] torrent
Info hash: 97811FB0D1D9A7ED7356F41CC71461CA4423D47F
Category: Categories > TV
Trackers:
View all torrent trackers >
Health:
 seeds: 17 ,  leechers: 7 |  Update >
Torrent language: Hindi Hindi
Total Size: 404.8 MB
Files List:
1    View torrent files >
Uploader:
ictv
Torrent added: August 24, 2018, 4:01 am
Tags: "Action", "Adventure", "Sci-Fi", "Drama"
IMDB: http://www.imdb.com/title/tt3819518
Users rating: ---, not rated. please login to rate.

Download The Flash (Fastest Man Alive) S01E02 (2014) BluRay - 720p - [Hindi + Eng] - 400MB [MovCr] torrent



Torrent Description

Our Site www.movcr.com


The Flash (Fastest Man Alive) S01E02 (2014) BluRay - 720p - [Hindi + Eng] - 400MB [MovCr]



http://www.imdb.com/title/tt3819518/



General
Unique ID : 43759438654739766023482914709884455205 (0x20EBC2E639EC46E7B302E742DB354925)
Complete name : www.MovCr.com - The Flash (Fastest Man Alive) S01E02 (2014) BluRay - 720p - [Hindi + Eng] - 400MB [MovCr].mkv
Format : Matroska
Format version : Version 4 / Version 2
File size : 405 MiB
Duration : 42 min 26 s
Overall bit rate : 1 334 kb/s
Movie name : www.MovCr.com
Encoded date : UTC 2018-08-19 10:33:35
Writing application : mkvmerge v23.0.0 ('The Bride Said No') 64-bit
Writing library : libebml v1.3.6 + libmatroska v1.4.9

Video
ID : 1
Format : AVC
Format/Info : Advanced Video Codec
Format profile :
Format settings : CABAC / 4 Ref Frames
Format settings, CABAC : Yes
Format settings, RefFrames : 4 frames
Codec ID : V_MPEG4/ISO/AVC
Duration : 42 min 25 s
Bit rate : 1 169 kb/s
Width : 1 280 pixels
Height : 720 pixels
Display aspect ratio : 16:9
Frame rate mode : Constant
Frame rate : 23.976 (24000/1001) FPS
Color space : YUV
Chroma subsampling : 4:2:0
Bit depth : 8 bits
Scan type : Progressive
Bits/(Pixel*Frame) : 0.053
Stream size : 351 MiB (87%)
Title : www.MovCr.com
Writing library : x264 core 155 r2901 7d0ff22
Encoding settings : cabac=1 / ref=1 / deblock=1:0:0 / analyse=0x1:0x111 / me=hex / subme=2 / psy=1 / psy_rd=1.00:0.00 / mixed_ref=0 / me_range=16 / chroma_me=1 / trellis=0 / 8x8dct=0 / cqm=0 / deadzone=21,11 / fast_pskip=1 / chroma_qp_offset=0 / threads=12 / lookahead_threads=4 / sliced_threads=0 / nr=0 / decimate=1 / interlaced=0 / bluray_compat=0 / constrained_intra=0 / bframes=3 / b_pyramid=2 / b_adapt=1 / b_bias=0 / direct=1 / weightb=1 / open_gop=0 / weightp=1 / keyint=240 / keyint_min=24 / scenecut=40 / intra_refresh=0 / rc_lookahead=10 / rc=abr / mbtree=1 / bitrate=1169 / ratetol=1.0 / qcomp=0.60 / qpmin=0 / qpmax=69 / qpstep=4 / vbv_maxrate=20000 / vbv_bufsize=25000 / nal_hrd=none / filler=0 / ip_ratio=1.40 / aq=1:1.00
Language : English
Default : Yes
Forced : No
Color range : Limited
Color primaries : BT.709
Transfer characteristics : BT.709
Matrix coefficients : BT.709

Audio #1
ID : 2
Format : MPEG Audio
Format version : Version 1
Format profile : Layer 3
Format settings : Joint stereo / MS Stereo
Codec ID : A_MPEG/L3
Codec ID/Hint : MP3
Duration : 42 min 25 s
Bit rate mode : Constant
Bit rate : 128 kb/s
Channel(s) : 2 channels
Sampling rate : 44.1 kHz
Frame rate : 38.281 FPS (1152 SPF)
Compression mode : Lossy
Delay relative to video : -23 ms
Stream size : 38.7 MiB (10%)
Title : www.MovCr.com
Language : Hindi
Default : Yes
Forced : No

Audio #2
ID : 3
Format : MPEG Audio
Format version : Version 1
Format profile : Layer 3
Format settings : Joint stereo / MS Stereo
Codec ID : A_MPEG/L3
Codec ID/Hint : MP3
Duration : 42 min 26 s
Bit rate mode : Constant
Bit rate : 48.0 kb/s
Channel(s) : 2 channels
Sampling rate : 48.0 kHz
Frame rate : 41.667 FPS (1152 SPF)
Compression mode : Lossy
Stream size : 14.6 MiB (4%)
Title : www.MovCr.com
Writing library : LAME3.100
Language : English
Default : No
Forced : No











Download The Flash (Fastest Man Alive) S01E02 (2014) BluRay - 720p - [Hindi + Eng] - 400MB [MovCr] torrent


Related Torrents


Comments   (please login to add your comment!)


Home - Browse Torrents

Made with love by an Extratorrent Fan!